aoloffline
版主

[2007] [欧美] [剧情] [BD-1080P] [BT下载]曼斯菲尔德庄园 Mansfield.Park.2007.1080p.BluRay.x264-7SinS 5.58GB

-->

Mansfield.Park.2007.1080p.BluRay.x264-7SinS

◎译  名 曼斯菲尔德庄园

◎片  名 Mansfield Park

◎年  代 2007

◎产  地 UK

◎语  言 English

◎上映日期 2007-03-18

◎IMDb评分  6.3/10 from 5,908 users

◎IMDb链接  http://www.imdb.com/title/tt0847182/

◎豆瓣评分 6.1/10 from 3,009 users

◎豆瓣链接 https://movie.douban.com/subject/2033970/

◎片  长 93分钟

◎导  演 Iain B. MacDonald

◎主  演 Billie Piper

      Blake Ritson

      James D'Arcy


◎简  介


  出身贫寒的少女范妮·普赖斯(比莉·派佩 Billie Piper 饰)在幼年时被姨父母伯特伦爵士夫妇收养,开始了她在曼斯菲尔德庄园的寄居生活。寄人篱下的的生活,让年幼的范妮觉得自己是一个微不足道的人。然而范妮始终有着一颗坚强善良的心,明辨是非。很快,她长到18岁成为一位亭亭玉立的少女。纨绔子弟亨利·克劳福德(乔·比蒂 Joe Beattie 饰)和他的妹妹玛丽(海莉·阿特维尔 Hayley Atwell 饰)搬到曼斯菲尔德庄园,和伯特伦家族成为邻居。轻浮的亨利看上了美丽动人的范妮,开始了频繁的无理纠缠,但都被范妮毫不动摇地拒绝了。在范妮心中,一直矢志不渝地暗恋着表哥埃德蒙·伯特伦(布莱克·瑞特森 Blake Ritson 饰)。而埃德蒙却爱上了自私势力的玛丽,玛丽一心只想嫁给有钱人,对于埃德蒙的追求嗤之以鼻。当玛丽对埃德蒙“回心转意”的时候,范妮告诫表哥不要上当,范妮能否赢得埃德蒙的爱。

  影片根据简·奥斯汀的同名小说改编而成。


Video
ID : 1
Format : AVC
Format/Info : Advanced Video Codec
Format profile : [email protected]
Format settings : CABAC / 4 Ref Frames
Format settings, CABAC : Yes
Format settings, ReFrames : 4 frames
Codec ID : V_MPEG4/ISO/AVC
Duration : 1 h 32 min
Bit rate : 8 233 kb/s
Width : 1 920 pixels
Height : 1 080 pixels
Display aspect ratio : 16:9
Frame rate mode : Constant
Frame rate : 25.000 FPS
Color space : YUV
Chroma subsampling : 4:2:0
Bit depth : 8 bits
Scan type : Progressive
Bits/(Pixel*Frame) : 0.159
Stream size : 5.22 GiB (94%)
Writing library : x264 core 114 r1924 08d04a4
Encoding settings : cabac=1 / ref=4 / deblock=1:0:0 / analyse=0x3:0x133 / me=umh / subme=7 / psy=1 / psy_rd=1.00:0.00 / mixed_ref=1 / me_range=16 / chroma_me=1 / trellis=1 / 8x8dct=1 / cqm=0 / deadzone=21,11 / fast_pskip=0 / chroma_qp_offset=-2 / threads=12 / sliced_threads=0 / nr=0 / decimate=1 / interlaced=0 / constrained_intra=0 / bframes=3 / b_pyramid=2 / b_adapt=1 / b_bias=0 / direct=1 / weightb=1 / open_gop=0 / weightp=2 / keyint=250 / keyint_min=25 / scenecut=40 / intra_refresh=0 / rc_lookahead=40 / rc=2pass / mbtree=1 / bitrate=8233 / ratetol=1.0 / qcomp=0.60 / qpmin=0 / qpmax=69 / qpstep=4 / cplxblur=20.0 / qblur=0.5 / ip_ratio=1.40 / aq=1:1.00
Language : English
Default : No
Forced : No

Audio
ID : 2
Format : AC-3
Format/Info : Audio Coding 3
Codec ID : A_AC3
Duration : 1 h 32 min
Bit rate mode : Constant
Bit rate : 384 kb/s
Channel(s) : 2 channels
Channel positions : Front: L R
Sampling rate : 48.0 kHz
Frame rate : 31.250 FPS (1536 SPF)
Bit depth : 16 bits
Compression mode : Lossy
Stream size : 255 MiB (4%)
Language : English
Service kind : Complete Main
Default : Yes
Forced : No




1 个附件 售价 大小 下载 时间

Mansfield.Park.2007.1080p.BluRay.x264-7SinS[btbtt.me].torrent 0 金币 56.33K 392 次 6天前

#1楼
发帖时间:2018-08-10 19:56:46   |   回复数:3
liyouchai
超凡入圣№
谢谢楼主分享资源
6天前 #2楼
911degrees
隐世仙人♂
非常感谢,谢谢分享
5天前 #3楼
blue23
隐世仙人♂
感谢楼主分享
5天前 #4楼
游客组