aoloffline
版主

[2017] [欧美] [科幻] [WEB-1080P] [BT下载]Collider.2018.1080p.AMZN.WEBRip.DDP5.1.x264-NTG 6.8GB

-->

Collider.2018.1080p.AMZN.WEBRip.DDP5.1.x264-NTG

◎译  名 

◎片  名 Collider

◎年  代 2016

◎产  地 美国

◎类  别 动作/科幻

◎语  言 英语

◎IMDb评分  N/A

◎IMDb链接  https://www.imdb.com/title/tt4538294/

◎BT之家整理 http://www.btbtt.co 

◎导  演 Justin Lewis

◎主  演 Christine Mascolo ... Maya

      Jude Moran ... Barry

      Michael Vasicek ... John


◎简  介


  In the year 2033| a young girl trapped in a mysterious orphanage recklessly travels back in time to find her parents and amend her past.


Video
ID : 1
Format : AVC
Format/Info : Advanced Video Codec
Format profile : [email protected]
Format settings : CABAC / 4 Ref Frames
Format settings, CABAC : Yes
Format settings, ReFrames : 4 frames
Codec ID : V_MPEG4/ISO/AVC
Duration : 1 h 24 min
Bit rate : 10.9 Mb/s
Width : 1 920 pixels
Height : 800 pixels
Display aspect ratio : 2.40:1
Frame rate mode : Constant
Frame rate : 23.976 (24000/1001) FPS
Color space : YUV
Chroma subsampling : 4:2:0
Bit depth : 8 bits
Scan type : Progressive
Bits/(Pixel*Frame) : 0.297
Stream size : 6.44 GiB (94%)
Default : Yes
Forced : No
Color range : Limited
Color primaries : BT.709
Transfer characteristics : BT.709
Matrix coefficients : BT.709

Audio
ID : 2
Format : E-AC-3
Format/Info : Enhanced Audio Coding 3
Codec ID : A_EAC3
Duration : 1 h 24 min
Bit rate mode : Constant
Bit rate : 640 kb/s
Channel(s) : 6 channels
Channel positions : Front: L C R, Side: L R, LFE
Sampling rate : 48.0 kHz
Frame rate : 187.500 FPS (256 SPF)
Compression mode : Lossy
Stream size : 386 MiB (6%)
Language : English
Service kind : Complete Main
Default : Yes
Forced : No

Text
ID : 3
Format : UTF-8
Codec ID : S_TEXT/UTF8
Codec ID/Info : UTF-8 Plain Text
Duration : 1 h 20 min
Bit rate : 44 b/s
Count of elements : 911
Stream size : 26.3 KiB (0%)
Title : SDH
Language : English
Default : No
Forced : No



1 个附件 售价 大小 下载 时间

Collider.2018.1080p.AMZN.WEBRip.DDP5.1.x264-NTG[btbtt.me].torrent 0 金币 68.68K 585 次 6天前

#1楼
发帖时间:2018-08-10 20:20:16   |   回复数:3
liyouchai
超凡入圣№
谢谢楼主分享资源
6天前 #2楼
911degrees
隐世仙人♂
非常感谢,谢谢分享
5天前 #3楼
blue23
隐世仙人♂
感谢楼主分享
5天前 #4楼
游客组